How to Train Your Dragon 2 (2014) x 1628 (2160p) HDR 5 1 x265 10bit Phun Psyz torrent download

seeders: 14
leechers: 271
updated:
Added ago by PhunPsyz ***** in Movies
Torrent Downloaded 10 times.
Info Hash: E171C6A3CC1F0974FBA429A41C869E6C6848A27F


Torrent Files

How to Train Your Dragon 2 (2014) x 1628 (2160p) HDR 5 1 x265 10bit Phun Psyz (Size: 3.0 GB)
  How to Train Your Dragon 2 (2014) x 1628 (2160p) HDR 5 1 x265 10bit Phun Psyz 3.0 GB

Torrent Description



www.imdb.com/title/tt1646971/

When Hiccup and Toothless discover an ice cave that is home to hundreds of new wild dragons and the mysterious Dragon Rider, the two friends find themselves at the center of a battle to protect the peace.

Source: FGT 4K HDR Remux







Format : Matroska
Format version : Version 4 / Version 2
File size : 3.03 GiB
Duration : 1 h 41 min
Overall bit rate : 4 253 kb/s

Video
ID : 1
Format : HEVC
Format/Info : High Efficiency Video Coding
Format profile : Main [email protected]@High
Codec ID : V_MPEGH/ISO/HEVC
Duration : 1 h 41 min
Bit rate : 3 848 kb/s
Width : 3 840 pixels
Height : 1 628 pixels
Display aspect ratio : 2.35:1
Frame rate mode : Constant
Frame rate : 23.976 (24000/1001) FPS
Color space : YUV
Chroma subsampling : 4:2:0
Bit depth : 10 bits
Bits/(Pixel*Frame) : 0.026
Stream size : 2.74 GiB (90%)
Writing library : x265 2.6:[Windows][GCC 7.3.0][64 bit] 10bit

Audio
ID : 2
Format : AC-3
Format/Info : Audio Coding 3
Commercial name : Dolby Digital
Codec ID : A_AC3
Duration : 1 h 41 min
Bit rate mode : Constant
Bit rate : 320 kb/s
Channel(s) : 6 channels
Channel layout : L R C LFE Ls Rs
Sampling rate : 48.0 kHz
Frame rate : 31.250 FPS (1536 SPF)
Bit depth : 16 bits
Compression mode : Lossy
Stream size : 233 MiB (8%)
Title : Surround
Language : English

Text
Language : English
Language : English
Language : English
Language : Italian
Language : Spanish
Language : Portuguese
Language : Czech
Language : Hungarian
Language : Polish
Language : English
Language : Italian
Language : Spanish
Language : Catalan
Language : Portuguese
Language : Czech
Language : Hungarian
Language : Polish
Default : No
Forced : No



Related Torrents

torrent name size age seed leech
351.9 MB 9 minutes 283 485
349.3 MB 9 minutes 334 100
287.1 MB 9 minutes 131 296
1.4 GB 9 minutes 133 87
803.0 MB 13 minutes 181 74

Sharing Widget


Download torrent
3.0 GB
seeders:1214
leechers:386
How to Train Your Dragon 2 (2014) x 1628 (2160p) HDR 5 1 x265 10bit Phun Psyz



To share this torrent use the code below and insert it into comments, status messages, forum posts or your signature.

Torrent: How to Train Your Dragon 2 (2014) x 1628 (2160p) HDR 5 1 x265 10bit Phun Psyz

Comments

Latest Searches