Interstellar (2014) IMAX Complete (2160p BluRay x265 HEVC 10bit AAC 5 1 Joy) [UTR] torrent download

seeders: 177
leechers: 344
updated:
Added ago by UTRCorp ***** in Movies
Torrent Downloaded 10 times.
Info Hash: A2A342D5DDD4F8844EC9F25F6E9C6F3F2762A657


Torrent Files

Interstellar (2014) IMAX Complete (2160p BluRay x265 HEVC 10bit AAC 5 1 Joy) [UTR] (Size: 11.3 GB)
  Interstellar (2014) IMAX Complete (2160p BluRay x265 HEVC 10bit AAC 5 1 Joy) [UTR] 11.3 GB

Torrent Description












Media Information
Includes Featurettes

Media Information


Code:

General
Format                                   : Matroska
Format version                           : Version 4 / Version 2
File size                                : 10.3 GiB
Duration                                 : 2 h 49 min
Overall bit rate                         : 8 737 kb/s
Movie name                               : Interstellar 2014 IMAX (2160p x265 10bit FS85 Joy)[UTR]
Encoded date                             : UTC 2019-01-07 06:31:05
Writing application                      : mkvmerge v28.2.0 ('The Awakening') 64-bit
Writing library                          : libebml v1.3.6 + libmatroska v1.4.9
Cover                                    : Yes
Attachments                              : cover.jpg
Writing frontend                         : StaxRip v2.0, Encoded by JoyBell

Video
ID                                       : 1
Format                                   : HEVC
Format/Info                              : High Efficiency Video Coding
Format profile                           : Main [email protected]@Main
Codec ID                                 : V_MPEGH/ISO/HEVC
Duration                                 : 2 h 49 min
Bit rate                                 : 8 000 kb/s
Width                                    : 3 840 pixels
Height                                   : 2 160 pixels
Display aspect ratio                     : 16:9
Frame rate mode                          : Constant
Frame rate                               : 23.976 (24000/1001) FPS
Color space                              : YUV
Chroma subsampling                       : 4:2:0
Bit depth                                : 10 bits
Bits/(Pixel*Frame)                       : 0.040
Stream size                              : 9.45 GiB (92%)
Writing library                          : x265 2.9+15-81373aab81df:[Windows][MSVC 1916][64 bit] 10bit
Encoding settings                        : cpuid=1111039 / frame-threads=3 / numa-pools=12 / wpp / no-pmode / no-pme / no-psnr / ssim / log-level=2 / input-csp=1 / input-res=3840x2160 / interlace=0 / total-frames=243218 / level-idc=0 / high-tier=1 / uhd-bd=0 / ref=4 / no-allow-non-conformance / no-repeat-headers / annexb / no-aud / no-hrd / info / hash=0 / no-temporal-layers / open-gop / min-keyint=23 / keyint=250 / gop-lookahead=0 / bframes=4 / b-adapt=2 / b-pyramid / bframe-bias=0 / rc-lookahead=80 / lookahead-slices=4 / scenecut=40 / radl=0 / no-splice / no-intra-refresh / ctu=64 / min-cu-size=8 / no-rect / no-amp / max-tu-size=32 / tu-inter-depth=1 / tu-intra-depth=1 / limit-tu=0 / rdoq-level=2 / dynamic-rd=0.00 / ssim-rd / signhide / no-tskip / nr-intra=0 / nr-inter=0 / no-constrained-intra / strong-intra-smoothing / max-merge=3 / limit-refs=3 / limit-modes / me=3 / subme=3 / merange=57 / temporal-mvp / weightp / no-weightb / no-analyze-src-pics / deblock=0:0 / sao / no-sao-non-deblock / rd=4 / early-skip / rskip / no-fast-intra / no-tskip-fast / no-cu-lossless / no-b-intra / splitrd-skip / rdpenalty=0 / psy-rd=2.20 / psy-rdoq=1.15 / no-rd-refine / no-lossless / cbqpoffs=0 / crqpoffs=0 / rc=abr / bitrate=8000 / qcomp=0.50 / qpstep=4 / stats-write=0 / stats-read=2 / cplxblur=20.0 / qblur=0.5 / ipratio=1.40 / pbratio=1.30 / aq-mode=3 / aq-strength=0.80 / cutree / zone-count=0 / no-strict-cbr / qg-size=32 / no-rc-grain / qpmax=69 / qpmin=0 / no-const-vbv / sar=0 / overscan=0 / videoformat=5 / range=0 / colorprim=2 / transfer=2 / colormatrix=2 / chromaloc=0 / display-window=0 / max-cll=0,0 / min-luma=0 / max-luma=1023 / log2-max-poc-lsb=8 / vui-timing-info / vui-hrd-info / slices=1 / no-opt-qp-pps / no-opt-ref-list-length-pps / multi-pass-opt-rps / scenecut-bias=0.05 / no-opt-cu-delta-qp / no-aq-motion / no-hdr / no-hdr-opt / no-dhdr10-opt / no-idr-recovery-sei / analysis-reuse-level=10 / scale-factor=0 / refine-intra=0 / refine-inter=0 / refine-mv=0 / limit-sao / ctu-info=0 / no-lowpass-dct / refine-mv-type=0 / copy-pic=1 / max-ausize-factor=1.0 / no-dynamic-refine / no-single-sei
Default                                  : Yes
Forced                                   : No

Audio #1
ID                                       : 2
Format                                   : AAC
Format/Info                              : Advanced Audio Codec
Format profile                           : LC
Codec ID                                 : A_AAC
Duration                                 : 2 h 49 min
Bit rate                                 : 340 kb/s
Channel(s)                               : 6 channels
Channel positions                        : Front: L C R, Side: L R, LFE
Sampling rate                            : 48.0 kHz
Frame rate                               : 46.875 FPS (1024 spf)
Compression mode                         : Lossy
Delay relative to video                  : 9 ms
Stream size                              : 411 MiB (4%)
Language                                 : English
Default                                  : No
Forced                                   : No

Audio #2
ID                                       : 3
Format                                   : AAC
Format/Info                              : Advanced Audio Codec
Format profile                           : LC
Codec ID                                 : A_AAC
Duration                                 : 2 h 49 min
Bit rate                                 : 82.1 kb/s
Channel(s)                               : 2 channels
Channel positions                        : Front: L R
Sampling rate                            : 48.0 kHz
Frame rate                               : 46.875 FPS (1024 spf)
Compression mode                         : Lossy
Delay relative to video                  : 9 ms
Stream size                              : 99.3 MiB (1%)
Language                                 : Japanese
Default                                  : No
Forced                                   : No

Audio #3
ID                                       : 4
Format                                   : AAC
Format/Info                              : Advanced Audio Codec
Format profile                           : LC
Codec ID                                 : A_AAC
Duration                                 : 2 h 49 min
Bit rate                                 : 83.4 kb/s
Channel(s)                               : 2 channels
Channel positions                        : Front: L R
Sampling rate                            : 48.0 kHz
Frame rate                               : 46.875 FPS (1024 spf)
Compression mode                         : Lossy
Delay relative to video                  : 9 ms
Stream size                              : 101 MiB (1%)
Language                                 : German
Default                                  : No
Forced                                   : No

Audio #4
ID                                       : 5
Format                                   : AAC
Format/Info                              : Advanced Audio Codec
Format profile                           : LC
Codec ID                                 : A_AAC
Duration                                 : 2 h 49 min
Bit rate                                 : 79.9 kb/s
Channel(s)                               : 2 channels
Channel positions                        : Front: L R
Sampling rate                            : 48.0 kHz
Frame rate                               : 46.875 FPS (1024 spf)
Compression mode                         : Lossy
Delay relative to video                  : 9 ms
Stream size                              : 96.6 MiB (1%)
Language                                 : Spanish
Default                                  : No
Forced                                   : No

Subtitle #1
ID                                       : 6
Format                                   : PGS
Muxing mode                              : zlib
Codec ID                                 : S_HDMV/PGS
Codec ID/Info                            : Picture based subtitle format used on BDs/HD-DVDs
Duration                                 : 2 h 47 min
Bit rate                                 : 31.5 kb/s
Count of elements                        : 4194
Stream size                              : 37.8 MiB (0%)
Language                                 : English
Default                                  : No
Forced                                   : No

Subtitle #2
ID                                       : 7
Format                                   : VobSub
Muxing mode                              : zlib
Codec ID                                 : S_VOBSUB
Codec ID/Info                            : Picture based subtitle format used on DVDs
Duration                                 : 2 h 42 min
Bit rate                                 : 6 365 b/s
Count of elements                        : 2065
Stream size                              : 7.40 MiB (0%)
Language                                 : Japanese
Default                                  : No
Forced                                   : No

Subtitle #3
ID                                       : 8
Format                                   : VobSub
Muxing mode                              : zlib
Codec ID                                 : S_VOBSUB
Codec ID/Info                            : Picture based subtitle format used on DVDs
Duration                                 : 2 h 47 min
Bit rate                                 : 8 041 b/s
Count of elements                        : 2100
Stream size                              : 9.65 MiB (0%)
Language                                 : French
Default                                  : No
Forced                                   : No

Subtitle #4
ID                                       : 9
Format                                   : VobSub
Muxing mode                              : zlib
Codec ID                                 : S_VOBSUB
Codec ID/Info                            : Picture based subtitle format used on DVDs
Duration                                 : 2 h 47 min
Bit rate                                 : 11.6 kb/s
Count of elements                        : 2096
Stream size                              : 13.9 MiB (0%)
Language                                 : German
Default                                  : No
Forced                                   : No

Subtitle #5
ID                                       : 10
Format                                   : VobSub
Muxing mode                              : zlib
Codec ID                                 : S_VOBSUB
Codec ID/Info                            : Picture based subtitle format used on DVDs
Duration                                 : 2 h 47 min
Bit rate                                 : 10.3 kb/s
Count of elements                        : 2095
Stream size                              : 12.3 MiB (0%)
Language                                 : Italian
Default                                  : No
Forced                                   : No

Subtitle #6
ID                                       : 11
Format                                   : VobSub
Muxing mode                              : zlib
Codec ID                                 : S_VOBSUB
Codec ID/Info                            : Picture based subtitle format used on DVDs
Duration                                 : 2 h 47 min
Bit rate                                 : 9 090 b/s
Count of elements                        : 2001
Stream size                              : 10.9 MiB (0%)
Language                                 : Spanish
Default                                  : No
Forced                                   : No

Subtitle #7
ID                                       : 12
Format                                   : VobSub
Muxing mode                              : zlib
Codec ID                                 : S_VOBSUB
Codec ID/Info                            : Picture based subtitle format used on DVDs
Duration                                 : 2 h 47 min
Bit rate                                 : 8 119 b/s
Count of elements                        : 1758
Stream size                              : 9.74 MiB (0%)
Language                                 : Dutch
Default                                  : No
Forced                                   : No

Subtitle #8
ID                                       : 13
Format                                   : VobSub
Muxing mode                              : zlib
Codec ID                                 : S_VOBSUB
Codec ID/Info                            : Picture based subtitle format used on DVDs
Duration                                 : 2 h 47 min
Bit rate                                 : 7 249 b/s
Count of elements                        : 1989
Stream size                              : 8.71 MiB (0%)
Language                                 : Chinese
Default                                  : No
Forced                                   : No

Subtitle #9
ID                                       : 14
Format                                   : VobSub
Muxing mode                              : zlib
Codec ID                                 : S_VOBSUB
Codec ID/Info                            : Picture based subtitle format used on DVDs
Duration                                 : 2 h 47 min
Bit rate                                 : 7 137 b/s
Count of elements                        : 1988
Stream size                              : 8.57 MiB (0%)
Language                                 : Chinese
Default                                  : No
Forced                                   : No

Subtitle #10
ID                                       : 15
Format                                   : VobSub
Muxing mode                              : zlib
Codec ID                                 : S_VOBSUB
Codec ID/Info                            : Picture based subtitle format used on DVDs
Duration                                 : 2 h 47 min
Bit rate                                 : 7 132 b/s
Count of elements                        : 1982
Stream size                              : 8.57 MiB (0%)
Language                                 : Korean
Default                                  : No
Forced                                   : No

Subtitle #11
ID                                       : 16
Format                                   : VobSub
Muxing mode                              : zlib
Codec ID                                 : S_VOBSUB
Codec ID/Info                            : Picture based subtitle format used on DVDs
Duration                                 : 2 h 47 min
Bit rate                                 : 9 621 b/s
Count of elements                        : 1992
Stream size                              : 11.6 MiB (0%)
Language                                 : Spanish
Default                                  : No
Forced                                   : No

Subtitle #12
ID                                       : 17
Format                                   : VobSub
Muxing mode                              : zlib
Codec ID                                 : S_VOBSUB
Codec ID/Info                            : Picture based subtitle format used on DVDs
Duration                                 : 2 h 47 min
Bit rate                                 : 9 237 b/s
Count of elements                        : 1987
Stream size                              : 11.1 MiB (0%)
Language                                 : Portuguese
Default                                  : No
Forced                                   : No

Subtitle #13
ID                                       : 18
Format                                   : VobSub
Muxing mode                              : zlib
Codec ID                                 : S_VOBSUB
Codec ID/Info                            : Picture based subtitle format used on DVDs
Duration                                 : 2 h 47 min
Bit rate                                 : 4 600 b/s
Count of elements                        : 1989
Stream size                              : 5.52 MiB (0%)
Language                                 : Arabic
Default                                  : No
Forced                                   : No

Subtitle #14
ID                                       : 19
Format                                   : VobSub
Muxing mode                              : zlib
Codec ID                                 : S_VOBSUB
Codec ID/Info                            : Picture based subtitle format used on DVDs
Duration                                 : 2 h 47 min
Bit rate                                 : 9 140 b/s
Count of elements                        : 1974
Stream size                              : 11.0 MiB (0%)
Language                                 : Croatian
Default                                  : No
Forced                                   : No

Subtitle #15
ID                                       : 20
Format                                   : VobSub
Muxing mode                              : zlib
Codec ID                                 : S_VOBSUB
Codec ID/Info                            : Picture based subtitle format used on DVDs
Duration                                 : 2 h 47 min
Bit rate                                 : 8 046 b/s
Count of elements                        : 1986
Stream size                              : 9.66 MiB (0%)
Language                                 : Czech
Default                                  : No
Forced                                   : No

Subtitle #16
ID                                       : 21
Format                                   : VobSub
Muxing mode                              : zlib
Codec ID                                 : S_VOBSUB
Codec ID/Info                            : Picture based subtitle format used on DVDs
Duration                                 : 2 h 47 min
Bit rate                                 : 9 131 b/s
Count of elements                        : 1954
Stream size                              : 11.0 MiB (0%)
Language                                 : Danish
Default                                  : No
Forced                                   : No

Subtitle #17
ID                                       : 22
Format                                   : VobSub
Muxing mode                              : zlib
Codec ID                                 : S_VOBSUB
Codec ID/Info                            : Picture based subtitle format used on DVDs
Duration                                 : 2 h 47 min
Bit rate                                 : 7 408 b/s
Count of elements                        : 1616
Stream size                              : 8.89 MiB (0%)
Language                                 : Finnish
Default                                  : No
Forced                                   : No

Subtitle #18
ID                                       : 23
Format                                   : VobSub
Muxing mode                              : zlib
Codec ID                                 : S_VOBSUB
Codec ID/Info                            : Picture based subtitle format used on DVDs
Duration                                 : 2 h 47 min
Bit rate                                 : 8 989 b/s
Count of elements                        : 1980
Stream size                              : 10.8 MiB (0%)
Language                                 : Greek
Default                                  : No
Forced                                   : No

Subtitle #19
ID                                       : 24
Format                                   : VobSub
Muxing mode                              : zlib
Codec ID                                 : S_VOBSUB
Codec ID/Info                            : Picture based subtitle format used on DVDs
Duration                                 : 2 h 47 min
Bit rate                                 : 7 367 b/s
Count of elements                        : 1983
Stream size                              : 8.85 MiB (0%)
Language                                 : Hebrew
Default                                  : No
Forced                                   : No

Subtitle #20
ID                                       : 25
Format                                   : VobSub
Muxing mode                              : zlib
Codec ID                                 : S_VOBSUB
Codec ID/Info                            : Picture based subtitle format used on DVDs
Duration                                 : 2 h 47 min
Bit rate                                 : 9 318 b/s
Count of elements                        : 1984
Stream size                              : 11.2 MiB (0%)
Language                                 : Hungarian
Default                                  : No
Forced                                   : No

Subtitle #21
ID                                       : 26
Format                                   : VobSub
Muxing mode                              : zlib
Codec ID                                 : S_VOBSUB
Codec ID/Info                            : Picture based subtitle format used on DVDs
Duration                                 : 2 h 47 min
Bit rate                                 : 8 554 b/s
Count of elements                        : 1705
Stream size                              : 10.3 MiB (0%)
Language                                 : Norwegian Bokmal
Default                                  : No
Forced                                   : No

Subtitle #22
ID                                       : 27
Format                                   : VobSub
Muxing mode                              : zlib
Codec ID                                 : S_VOBSUB
Codec ID/Info                            : Picture based subtitle format used on DVDs
Duration                                 : 2 h 47 min
Bit rate                                 : 7 739 b/s
Count of elements                        : 1959
Stream size                              : 9.29 MiB (0%)
Language                                 : Polish
Default                                  : No
Forced                                   : No

Subtitle #23
ID                                       : 28
Format                                   : VobSub
Muxing mode                              : zlib
Codec ID                                 : S_VOBSUB
Codec ID/Info                            : Picture based subtitle format used on DVDs
Duration                                 : 2 h 47 min
Bit rate                                 : 9 624 b/s
Count of elements                        : 1992
Stream size                              : 11.5 MiB (0%)
Language                                 : Portuguese
Default                                  : No
Forced                                   : No

Subtitle #24
ID                                       : 29
Format                                   : VobSub
Muxing mode                              : zlib
Codec ID                                 : S_VOBSUB
Codec ID/Info                            : Picture based subtitle format used on DVDs
Duration                                 : 2 h 47 min
Bit rate                                 : 8 841 b/s
Count of elements                        : 1893
Stream size                              : 10.6 MiB (0%)
Language                                 : Romanian
Default                                  : No
Forced                                   : No

Subtitle #25
ID                                       : 30
Format                                   : VobSub
Muxing mode                              : zlib
Codec ID                                 : S_VOBSUB
Codec ID/Info                            : Picture based subtitle format used on DVDs
Duration                                 : 2 h 47 min
Bit rate                                 : 9 863 b/s
Count of elements                        : 2052
Stream size                              : 11.8 MiB (0%)
Language                                 : Russian
Default                                  : No
Forced                                   : No

Subtitle #26
ID                                       : 31
Format                                   : VobSub
Muxing mode                              : zlib
Codec ID                                 : S_VOBSUB
Codec ID/Info                            : Picture based subtitle format used on DVDs
Duration                                 : 2 h 47 min
Bit rate                                 : 8 822 b/s
Count of elements                        : 1684
Stream size                              : 10.6 MiB (0%)
Language                                 : Swedish
Default                                  : No
Forced                                   : No

Subtitle #27
ID                                       : 32
Format                                   : VobSub
Muxing mode                              : zlib
Codec ID                                 : S_VOBSUB
Codec ID/Info                            : Picture based subtitle format used on DVDs
Duration                                 : 1 h 6 min
Bit rate                                 : 22 b/s
Count of elements                        : 3
Stream size                              : 10.9 KiB (0%)
Language                                 : Japanese
Default                                  : No
Forced                                   : No

Subtitle #28
ID                                       : 33
Format                                   : UTF-8
Codec ID                                 : S_TEXT/UTF8
Codec ID/Info                            : UTF-8 Plain Text
Duration                                 : 2 h 48 min
Bit rate                                 : 91 b/s
Count of elements                        : 1974
Stream size                              : 113 KiB (0%)
Language                                 : Persian
Default                                  : No
Forced                                   : No

Subtitle #29
ID                                       : 34
Format                                   : UTF-8
Codec ID                                 : S_TEXT/UTF8
Codec ID/Info                            : UTF-8 Plain Text
Duration                                 : 2 h 42 min
Bit rate                                 : 148 b/s
Count of elements                        : 2096
Stream size                              : 177 KiB (0%)
Language                                 : Thai
Default                                  : No
Forced                                   : No

Subtitle #30
ID                                       : 35
Format                                   : UTF-8
Codec ID                                 : S_TEXT/UTF8
Codec ID/Info                            : UTF-8 Plain Text
Duration                                 : 2 h 42 min
Bit rate                                 : 78 b/s
Count of elements                        : 1638
Stream size                              : 94.1 KiB (0%)
Language                                 : Vietnamese
Default                                  : No
Forced                                   : No

Menu
00:00:00.000                             : en:Chapter 1
00:09:35.491                             : en:Chapter 2
00:17:12.322                             : en:Chapter 3
00:25:00.749                             : en:Chapter 4
00:35:45.393                             : en:Chapter 5
00:42:16.867                             : en:Chapter 6
00:50:19.891                             : en:Chapter 7
00:54:48.076                             : en:Chapter 8
00:58:59.702                             : en:Chapter 9
01:06:15.012                             : en:Chapter 10
01:17:28.185                             : en:Chapter 11
01:25:32.001                             : en:Chapter 12
01:34:31.999                             : en:Chapter 13
01:46:14.701                             : en:Chapter 14
01:55:34.552                             : en:Chapter 15
02:02:14.368                             : en:Chapter 16
02:12:56.843                             : en:Chapter 17
02:20:53.820                             : en:Chapter 18
02:35:12.094                             : en:Chapter 19
02:43:59.830                             : en:Chapter 20



Source Information


Code:

Release:
Interstellar 2014 2160p UHD BluRay REMUX HDR HEVC DTS-HD MA 5.1-EPSiLON  (66.2 GB)



We have no issue with individuals posting or re-uploading our torrents on a platform we aren't on. However, if this is something you'd like to do, please do so in a 'as-is' format. We ask that you do not create a new torrent, include all descriptions you see above including the UTR logo, tags, notes and screenshots. If you'd like to become a permanent poster on a website we don't post to, feel free to get in contact with a UniTeam member.




Related Torrents

torrent name size age seed leech
705.1 MB 6 minutes 784 80
210.9 MB 10 minutes 641 96
14.8 GB 10 minutes 276 72
4.9 GB 10 minutes 658 226
416.4 MB 14 minutes 707 121

Sharing Widget


Download torrent
11.3 GB
seeders:1214
leechers:386
Interstellar (2014) IMAX Complete (2160p BluRay x265 HEVC 10bit AAC 5 1 Joy) [UTR]



To share this torrent use the code below and insert it into comments, status messages, forum posts or your signature.

Torrent: Interstellar (2014) IMAX Complete (2160p BluRay x265 HEVC 10bit AAC 5 1 Joy) [UTR]

Comments

Latest Searches